Archive for the ‘Movie Downloads (Torrent)’ Category

Format : AVI
Format/Info : Audio Video Interleave
File size : 764 MiB
Duration : 1h 18mn
Overall bit rate : 1 359 Kbps
Writing library : VirtualDub build 32842/release

Video
ID : 0
Format : MPEG-4 Visual
Format profile : Advanced Simple@L5
Format settings, BVOP : 2
Format settings, QPel : No
Format settings, GMC : No warppoints
Format settings, Matrix : Default (H.263)
Muxing mode : Packed bitstream
Codec ID : XVID
Codec ID/Hint : XviD
Duration : 1h 18mn
Bit rate : 1 222 Kbps
Width : 624 pixels
Height : 332 pixels
Display aspect ratio : 1.880
Frame rate : 25.000 fps
Color space : YUV
Chroma subsampling : 4:2:0
Bit depth : 8 bits
Scan type : Progressive
Compression mode : Lossy
Bits/(Pixel*Frame) : 0.236
Stream size : 687 MiB (90%)
Writing library : XviD 64

Audio
ID : 1
Format : MPEG Audio
Format version : Version 1
Format profile : Layer 3
Mode : Joint stereo
Codec ID : 55
Codec ID/Hint : MP3
Duration : 1h 18mn
Bit rate mode : Constant
Bit rate : 128 Kbps
Channel(s) : 2 channels
Sampling rate : 44.1 KHz
Compression mode : Lossy
Stream size : 71.9 MiB (9%)
Alignment : Split accross interleaves
Interleave, duration : 40 ms (1.00 video frame)
Interleave, preload duration : 500 ms

In 1988, young sisters Katie and Kristi befriend an invisible entity who resides in their home.
Directors:
Henry Joost, Ariel Schulman
Writers:
Christopher B. Landon, Oren Peli (characters)
Stars:
Chloe Csengery, Jessica Tyler Brown and Christopher Nicholas Smith

DOWNLOAD LINK…

Advertisements

Format : AVI
Format/Info : Audio Video Interleave
File size : 501 MiB
Duration : 1h 54mn
Overall bit rate : 613 Kbps

Screens:




TORRENT

Sample:

Torrent Download 1

Torrent Download 2

WBZ presents: Fast Five

Genre – Action | Crime | Drama
Year- 2011
IMDb Link – http://www.imdb.com/title/tt1596343/
Size – 711 mb
Length – 01:58:46
Video – XviD
Sourse-Imagine
Resolution – 640×400/ 24 fps/
Audio Language – English
Audio – MP3 /128 Kbps
Subs – N/A

Vin Diesel … Dominic Toretto
Paul Walker … Brian O’Conner
Jordana Brewster … Mia
Tyrese Gibson … Roman
Ludacris … Tej (as Chris ‘Ludacris’ Bridges)
Matt Schulze … Vince
Sung Kang … Han
Gal Gadot … Gisele
Tego Calderon … Leo
Don Omar … Santos
Joaquim de Almeida … Reyes
Dwayne Johnson … Hobbs

Dominic and his crew find themselves on the wrong side of the law once again as they try to switch lanes between a ruthless drug lord and a relentless federal agent.

Storyline

Former cop Brian O’Conner partners with ex-con Dom Toretto on the opposite side of the law. Since Brian and Mia Toretto broke Dom out of custody, they’ve blown across many borders to elude authorities. Now backed into a corner in Rio de Janeiro, they must pull one last job in order to gain their freedom. As they assemble their elite team of top racers, the unlikely allies know their only shot of getting out for good means confronting the corrupt businessman who wants them dead. But he’s not the only one on their tail. Hard-nosed federal agent Luke Hobbs never misses his target. When he is assigned to track down Dom and Brian, he and his strike team launch an all-out assault to capture them. But as his men tear through Brazil, Hobbs learns he can’t separate the good guys from the bad. Now, he must rely on his instincts to corner his prey… before someone else runs them down first.

Greetz:
NOVA-AsA-IFLIX-ELEKTRI4KA-SAFC-LKRG-MEMORY100-Unevano-asttas-imagine-Feel-Free
IPT-LU-TA-VISION-NOIR-T0XiC-MTV-Rx-iNK-HiVE-CM8-LEGi0N-killerhz-FLAWL3SS
SAFCuk009+Fabreezy-Kingdom-PrisM-ExtraTorrentRG-MAGNAT-PDU-LAP-Samurai RG …..

DOWNLOAD LINK 1

DOWNLOAD LINK 2



X-Men ; First Class (2011) EP1C TS V2 KvCD PHATZ (TLS Release)

In 1963, Charles Xavier starts up a school and later a team,
for humans with superhuman abilities. Among them is Erik Lensherr,
his best friend… and future archenemy.

Genre: ……. Action | Adventure | Drama
Country: ….. 1 June 2011 (UK)
Language: …. English
Source: …… EP1C V2
Format: …… KVCD
Chapters: …. Every 5 mins
Runtime: ….. 132 min
Video: ……. mpeg1/Ntsc
Bitrate: ….. 761kbps
Audio: ……. 44.10kHz/128kbps/Stereo
Res: ……… 352×240/23.97 fps
Size: …….. 806Mb(Bin file)
Sample: …… 13.0mb
IMDB: …….. http://www.imdb.com/title/tt1270798/
Movie info:… 8.3/10
Encoder:…… PHATZ
KVCD Release:. 6 JUNE 2011
Tracker:…… TorrentSeed
Director: …. Matthew Vaughn

SCREENSHOTS


DOWNLOAD TORRENT